#TITLE:Frontal Impact;
#SUBTITLE:;
#ARTIST:Daniel;
#TITLETRANSLIT:;
#SUBTITLETRANSLIT:;
#ARTISTTRANSLIT:;
#GENRE:;
#CREDIT:;
#BANNER:banner.png;
#BACKGROUND:;
#LYRICSPATH:;
#CDTITLE:cdtitle.png;
#MUSIC:frontal.mp3;
#OFFSET:0.003;
#SAMPLESTART:58.560;
#SAMPLELENGTH:12.000;
#SELECTABLE:YES;
#BPMS:0.000=162.070;
#STOPS:;
#DELAYS:;
#TIMESIGNATURES:0.000=4=4
;
#BGCHANGES:0.000=flipped.avi=1.000=0=0=1=====,
99999=-nosongbg-=1.000=0=0=0 // don't automatically add -songbackground-
;
#KEYSOUNDS:;
#ATTACKS:;
// cache tags:
#FIRSTBEAT:38.000;
#LASTBEAT:300.000;
#SONGFILENAME:/Songs/ParaPara/Frontal Impact/frontal.sm;
#HASMUSIC:1;
#HASBANNER:1;
#MUSICLENGTH:114.865;
// end cache tags

//---------------para-single - ----------------
#NOTES:
     para-single:
     :
     Beginner:
     6:
     0.308,0.392,0.218,0.139,0.104,207.000,25.000,16.000,0.000,0.000,0.000,0.000,-1.000,-1.000,0.308,0.392,0.218,0.139,0.104,207.000,25.000,16.000,0.000,0.000,0.000,0.000,-1.000,-1.000:
00000
00000
00000
00000
,
00000
00000
00000
00000
,
00000
00000
00000
00000
,
00000
00000
00000
00000
,
00000
00000
00000
00000
,
00000
00000
00000
00000
,
00000
00000
00000
00000
,
00000
00000
00000
00000
,
00000
00000
00000
00000
,
00000
00000
01000
00010
,
00100
00100
00010
01000
,
00100
00100
01000
00010
,
00010
01000
00000
10001
,
00000
10001
01000
00010
,
00100
00100
00010
01000
,
00100
00100
01000
00010
,
00010
01000
00000
10001
,
00000
10001
00000
00100
,
00000
10001
01000
00001
,
00010
10000
00002
10003
,
00000
00000
20002
30003
,
01000
00010
01000
00000
,
00010
01000
00010
00000
,
00000
00000
00000
00000
00000
00000
00000
00000
00000
00000
00000
00000
01000
00100
00010
00001
00000
00000
00000
00000
00000
00000
00000
00000
,
00010
00100
01000
10000
00000
00000
00000
00000
00000
00000
00000
00000
00010
00000
00000
00000
00000
00000
00100
00000
00000
00000
00000
00000
,
00000
10001
00000
00100
,
00000
10001
01000
00001
,
00010
10000
00002
10003
,
00000
00000
20002
30003
,
01000
00010
01000
00000
,
00010
01000
00010
00000
,
00000
00000
00000
00000
00000
00000
00000
00000
00000
00000
00000
00000
01000
00100
00010
00001
00000
00000
00000
00000
00000
00000
00000
00000
,
00010
00100
01000
10000
00000
00000
00000
00000
00000
00000
00000
00000
10000
00000
00000
00000
00000
00000
00000
00000
00000
00000
00000
00000
,
00001
00000
00200
00000
,
00300
00000
01000
00010
,
00100
00100
00010
01000
,
00100
00100
01000
00010
,
00010
01000
00000
10001
,
00000
10001
01000
00010
,
00100
00100
00010
01000
,
00100
00100
01000
00010
,
00010
01000
00000
10001
,
00000
00000
00010
00000
,
00000
00000
00010
00000
,
00000
00000
00010
00000
,
00000
00000
00100
01000
,
00010
01000
00010
00000
,
00000
00000
00010
00000
,
00000
00000
00010
00000
,
00000
00000
00100
01000
,
00010
01000
00020
01030
,
00000
00000
00000
00000
01010
00100
01010
00000
,
00000
00000
00000
00000
00000
00000
01010
00000
00000
00000
00000
00000
01000
00100
00010
00001
00000
00000
00000
00000
00000
00000
00000
00000
,
00010
00100
01000
10000
00000
00000
00000
00000
00000
00000
00000
00000
00010
00000
00000
00000
00000
00000
00010
00000
00000
00000
00000
00000
,
01000
01000
00020
01030
,
00000
00000
00000
00000
01010
00100
01010
00000
,
00000
00000
00000
00000
00000
00000
01010
00000
00000
00000
00000
00000
01000
00100
00010
00001
00000
00000
00000
00000
00000
00000
00000
00000
,
00010
00100
01000
10000
00000
00000
00000
00000
00000
00000
00000
00000
00000
00000
00000
00000
00000
00000
10001
00000
00000
00000
00000
00000
,
00000
10001
00000
00100
,
00000
10001
01000
00001
,
00010
10000
00002
10003
,
00000
00000
20002
30003
,
01000
00010
01000
00000
,
00010
01000
00010
00000
,
00000
00000
00000
00000
00000
00000
00000
00000
00000
00000
00000
00000
01000
00100
00010
00001
00000
00000
00000
00000
00000
00000
00000
00000
,
00010
00100
01000
10000
00000
00000
00000
00000
00000
00000
00000
00000
00010
00000
00000
00000
00000
00000
00100
00000
00000
00000
00000
00000
,
00000
10001
00000
00100
,
00000
10001
01000
00001
,
00010
10000
00002
10003
,
00000
00000
20002
30003
,
01000
00010
01000
00000
,
00010
01000
00010
00000
,
00000
00000
00000
00000
00000
00000
00000
00000
00000
00000
00000
00000
01000
00100
00010
00001
00000
00000
00000
00000
00000
00000
00000
00000
,
00010
00100
01000
10000
00000
00000
00000
00000
00000
00000
00000
00000
10000
00000
00000
00000
00000
00000
00000
00000
00000
00000
00000
00000
,
00001
00000
00200
00000
,
00300
00000
00000
00000
;
